Login
Username:
Password:
[Signup]
[Recover Account]


Browse Torrents

Poll


You must be logged in to view polls



Latest Torrents
Stree (2018) 1080p...
- [Size: 4.30 GB]

Star.Wars.Resistan...
- [Size: 178.45 MB]

Marvels.Avengers-B...
- [Size: 178.30 MB]

Boarding.School.20...
- [Size: 708.94 MB]

Desamlo Dongalu Pa...
- [Size: 986.03 MB]


Torrent Details For "Outlaw.King.2018.1080p.NF.WEBRip.DDP5.1.x264-CM"

Outlaw.King.2018.1080p.NF.WEBRip.DDP5.1.x264-CM

Download this torrent | Magnet Download
Health:
Seeds: 6,150
Leechers: 7,634
Completed: 37,118 
Last Checked: 09-11-2018 16:25:25
External Torrent
Update Stats



Images Host

Poster


iMDB
Title: Outlaw King
Year: 2018
Runtime: 121 minutes
Votes: 357
Rating: 7.2/10
Language: English
Director: David Mackenzie
Writing By: Bathsheba Doran,David Mackenzie,James MacInnes,David Harrower,Mark Bomback,
Produced By: Gillian Berrie,Richard Brown,Brian Coffey,Steve Golin,Rob Kettlewell,Danny McGrath,Claire Moorsom,Stan Wlodkowski,
Cast:
Chris Pine as Robert Bruce, Earl of Carrick
Stephen Dillane as King Edward I of England
Rebecca Robin as Queen Margaret of England
Billy Howle as Edward, Prince of Wales
Paul Blair as William Lamberton, Bishop of St. Andrews
Sam Spruell as Aymer de Valence, Earl of Pembroke
Jonny Phillips as Richard de Burgh, Earl of Ulster
Ben Clifford as Piers Gaveston, Earn of Cornwall
Jamie Maclachlan as Roger de Mowbray
Duncan Lacroix as Henry de Percy, Baron Percy
Trailers:
Official Trailer #2
Official Trailer


Watch-Free-HD     Download

Details
Name:Outlaw.King.2018.1080p.NF.WEBRip.DDP5.1.x264-CM
Description:
Video
ID : 1
Format : AVC
Format/Info : Advanced Video Codec
Format profile : [email protected]
Format settings : CABAC / 3 Ref Frames
Format settings, CABAC : Yes
Format settings, ReFrames : 3 frames
Codec ID : V_MPEG4/ISO/AVC
Duration : 2 h 1 min
Bit rate mode : Variable
Bit rate : 5 800 kb/s
Maximum bit rate : 8 700 kb/s
Width : 1 920 pixels
Height : 1 080 pixels
Display aspect ratio : 16:9
Frame rate mode : Constant
Frame rate : 24.000 FPS
Color space : YUV
Chroma subsampling : 4:2:0
Bit depth : 8 bits
Scan type : Progressive
Bits/(Pixel*Frame) : 0.117
Stream size : 4.88 GiB (93%)
Writing library : x264 core 148 r2715 7e75228
Encoding settings : cabac=1 / ref=3 / deblock=1:0:0 / analyse=0x1:0x111 / me=umh / subme=10 / psy=1 / psy_rd=1.00:0.00 / mixed_ref=1 / me_range=24 / chroma_me=1 / trellis=2 / 8x8dct=0 / cqm=0 / deadzone=21,11 / fast_pskip=1 / chroma_qp_offset=-2 / threads=8 / lookahead_threads=1 / sliced_threads=0 / nr=0 / decimate=1 / interlaced=0 / bluray_compat=0 / stitchable=1 / constrained_intra=0 / bframes=2 / b_pyramid=0 / b_adapt=2 / b_bias=0 / direct=3 / weightb=1 / open_gop=0 / weightp=2 / keyint=48 / keyint_min=25 / scenecut=0 / intra_refresh=0 / rc_lookahead=48 / rc=2pass / mbtree=1 / bitrate=5800 / ratetol=1.0 / qcomp=0.50 / qpmin=6 / qpmax=51 / qpstep=4 / cplxblur=20.0 / qblur=0.5 / vbv_maxrate=8700 / vbv_bufsize=11600 / nal_hrd=vbr / filler=0 / ip_ratio=1.40 / aq=1:1.00
Default : Yes
Forced : No

Audio
ID : 2
Format : E-AC-3 JOC
Format/Info : Enhanced AC-3 with Joint Object Coding
Commercial name : Dolby Digital Plus with Dolby Atmos
Codec ID : A_EAC3
Duration : 2 h 1 min
Bit rate mode : Constant
Bit rate : 448 kb/s
Channel(s) : 6 channels
Channel layout : L R C LFE Ls Rs
Sampling rate : 48.0 kHz
Frame rate : 31.250 FPS (1536 SPF)
Compression mode : Lossy
Stream size : 390 MiB (7%)
Service kind : Complete Main
Default : Yes
Forced : No
Encoded date : UTC 2018-11-06 20:30:03
Complexity index : 16
Number of dynamic objects : 15
Bed channel count : 1 channel
Bed channel configuration : LFE



 http://imagecurl.com/viewer.p...0931701556621741.png


 http://imagecurl.com/viewer.p...1110429444977707.png


 http://imagecurl.com/viewer.p...6514983.png[/center]
Category:Movies > WEB-HD
Lang:English  English
Total Size:5.26 GB
Info Hash:5f2fda930d0971387a8b225ca6d6da7e5d5e50c5
Added By:Scene
Date Added:09-11-2018 10:36:53
Downloads:26

Ratings:Not Yet Rated (Log in to rate it)


Tracker:
http://tracker.trackerfix.com:80/announce


File List: 


Comments

No comments still posted

Top
Copyright 2018 DownloadHD -|- Page Generated In 0.572795 secs.
-|- RSS Feed -|- Feed Info
Disco-Polo | Downloaden APK | Furniture & Decor